Панель пользователя
Регистрация

Воспользуйтесь социальными сетями для входа на https://freerutor.com

vk odnoklassniki facebook mailru yandex google
Рекомендуем
Document
Счетчик
Товары интернет магазина
Document

Виктория и Абдул (2017) BDRip 720p | Лицензия

Виктория и Абдул (2017) BDRip 720p | Лицензия
Участники торрент обмена
Сидов Пиров Скачали
16 0 520
Характеристика
Размер Файлы
4.18 GB
Поделиться раздачей
Фильмы (720,1080,Blu-Ray)
Наименование: Виктория и Абдул
Оригинальное наименование: Victoria and Abdul
Произведено: Великобритания, США
Категория: драма, биография, история
Режиссер постановщик: Стивен Фрирз
В главных ролях: Джуди Денч, Али Фазал, Тим Пиготт-Смит, Эдди Иззард, Адиль Ахтар, Майкл Гэмбон, Пол Хиггинс, Оливия Уильямс, Фенелла Вулгар, Джулиан Уэдэм
Краткое описание: Взойдя на престол в возрасте 18-ти лет, Виктория стала королевой Великобритании, Ирландии, а позже и императрицей Индии. Среди бесчисленных подданных короны был красавец Абдул Карим. Появившись, казалось бы, из ниоткуда, он превратился в очень влиятельного человека при дворе. Ему завидовали, против него плели интриги, а их отношения с королевой обсуждали не только в Англии, но и во всем мире.
  • Видео данные:MPEG-4 AVC, 4488 Кбит/с, 1280x536
    Аудио данные: Русский, английский (AC3, 6 ch, 448 Кбит/с)
    Перевод: Дублированный [Лицензия]
    Субтитры: Русские форсированные
    Продолжительность: 01:51:10
  • Виктория и Абдул (2017) BDRip 720p | Лицензия Виктория и Абдул (2017) BDRip 720p | Лицензия Виктория и Абдул (2017) BDRip 720p | Лицензия
  • Общее
    Уникальный идентификатор : 241168111154008918335749812169801881114 (0xB56F49E79B35C359AC574818D2EA561A)
    Полное имя : D:\Загрузки\Victoria.&.Abdul.2017.D.BDRip.720p.mkv
    Формат : Matroska
    Версия формата : Version 2
    Размер файла : 4,18 Гбайт
    Продолжительность : 1 ч. 51 м.
    Общий поток : 5385 Кбит/сек
    Дата кодирования : UTC 2018-01-25 22:23:20
    Программа кодирования : mkvmerge v7.8.0 ('River Man') 32bit built on Apr 3 2015 12:11:22
    Библиотека кодирования : libebml v1.3.1 + libmatroska v1.4.2

    Видео
    Идентификатор : 1
    Формат : AVC
    Формат/Информация : Advanced Video Codec
    Профиль формата : High@L4.1
    Настройки формата : CABAC / 9 Ref Frames
    Параметр CABAC формата : Да
    Параметр RefFrames формата : 9 кадров
    Идентификатор кодека : V_MPEG4/ISO/AVC
    Продолжительность : 1 ч. 51 м.
    Битрейт : 4382 Кбит/сек
    Ширина : 1280 пикселей
    Высота : 536 пикселей
    Соотношение сторон : 2,40:1
    Режим частоты кадров : Постоянный
    Частота кадров : 23,976 (24000/1001) кадра/сек
    Цветовое пространство : YUV
    Субдискретизация насыщенности : 4:2:0
    Битовая глубина : 8 бит
    Тип развёртки : Прогрессивная
    Бит/(Пиксели*Кадры) : 0.266
    Размер потока : 3,40 Гбайт (81%)
    Библиотека кодирования : x264 core 142 r2431+42 c69a006 tMod [8-bit@4:2:0 X86_64]
    Настройки программы : cabac=1 / ref=9 / deblock=1:-3:-3 / analyse=0x3:0x113 / me=umh / subme=10 / psy=1 / fade_compensate=0.00 / psy_rd=1.00:0.05 / mixed_ref=1 / me_range=32 / chroma_me=1 / trellis=2 / 8x8dct=1 / cqm=0 / deadzone=21,11 / fast_pskip=0 / chroma_qp_offset=-2 / threads=12 / lookahead_threads=2 / sliced_threads=0 / nr=0 / decimate=1 / interlaced=0 / bluray_compat=0 / constrained_intra=0 / fgo=0 / bframes=8 / b_pyramid=2 / b_adapt=2 / b_bias=0 / direct=3 / weightb=1 / open_gop=0 / weightp=2 / keyint=250 / keyint_min=23 / scenecut=40 / intra_refresh=0 / rc_lookahead=40 / rc=crf / mbtree=0 / crf=16.0000 / qcomp=0.60 / qpmin=0:0:0 / qpmax=69:69:69 / qpstep=4 / vbv_maxrate=30000 / vbv_bufsize=30000 / crf_max=0.0 / nal_hrd=none / filler=0 / ip_ratio=1.40 / pb_ratio=1.30 / aq=3:1.00 / aq-sensitivity=10.00 / aq-factor=1.00:1.00:1.00 / aq2=0 / aq3=0
    Язык : English
    Default : Да
    Forced : Нет
    Цветовой диапазон : Limited
    Коэффициенты матрицы : BT.709

    Аудио #1
    Идентификатор : 2
    Формат : AC-3
    Формат/Информация : Audio Coding 3
    Идентификатор кодека : A_AC3
    Продолжительность : 1 ч. 51 м.
    Вид битрейта : Постоянный
    Битрейт : 448 Кбит/сек
    Каналы : 6 каналов
    Расположение каналов : Front: L C R, Side: L R, LFE
    Частота : 48,0 КГц
    Частота кадров : 31,250 кадров/сек (1536 SPF)
    Битовая глубина : 16 бит
    Метод сжатия : С потерями
    Размер потока : 356 Мбайт (8%)
    Язык : Russian
    ServiceKind/String : Complete Main
    Default : Да
    Forced : Нет

    Аудио #2
    Идентификатор : 3
    Формат : AC-3
    Формат/Информация : Audio Coding 3
    Идентификатор кодека : A_AC3
    Продолжительность : 1 ч. 51 м.
    Вид битрейта : Постоянный
    Битрейт : 448 Кбит/сек
    Каналы : 6 каналов
    Расположение каналов : Front: L C R, Side: L R, LFE
    Частота : 48,0 КГц
    Частота кадров : 31,250 кадров/сек (1536 SPF)
    Битовая глубина : 16 бит
    Метод сжатия : С потерями
    Размер потока : 356 Мбайт (8%)
    Язык : English
    ServiceKind/String : Complete Main
    Default : Нет
    Forced : Нет

    Текст
    Идентификатор : 4
    Формат : UTF-8
    Идентификатор кодека : S_TEXT/UTF8
    Идентификатор кодека/Информация : UTF-8 Plain Text
    Язык : Russian
    Default : Да
    Forced : Нет

    Меню
    00:00:00.000 : en:Chapter 01
    00:05:41.132 : en:Chapter 02
    00:10:37.803 : en:Chapter 03
    00:15:44.026 : en:Chapter 04
    00:20:05.829 : en:Chapter 05
    00:28:20.699 : en:Chapter 06
    00:35:27.208 : en:Chapter 07
    00:41:05.045 : en:Chapter 08
    00:49:15.160 : en:Chapter 09
    00:54:43.488 : en:Chapter 10
    00:59:56.843 : en:Chapter 11
    01:07:12.111 : en:Chapter 12
    01:12:12.745 : en:Chapter 13
    01:17:47.162 : en:Chapter 14
    01:21:20.792 : en:Chapter 15
    01:27:25.031 : en:Chapter 16
    01:30:56.909 : en:Chapter 17
    01:38:49.465 : en:Chapter 18
    01:42:31.520 : en:Chapter 19
    01:44:27.594 : en:Chapter 20
4.0 из 10
голосов: 3
CinemaRelizer 26-01-2018, 01:27

MissK | 12-11-2017, 18:51 | Статус: Оффлайн

С рекламой совсем охуели, мало того, что бегущей строкой, так видео пускают прямо на пол-экрана вместе с фильмом.
Информация
Посетители, находящиеся в группе Гости, не могут оставлять комментарии к данной публикации.